<?xml version="1.0" standalone="no"?>
<!DOCTYPE svg PUBLIC "-//W3C//DTD SVG 1.1//EN" "http://www.w3.org/Graphics/SVG/1.1/DTD/svg11.dtd" >
<svg xmlns="http://www.w3.org/2000/svg">
<metadata>Generated by IcoMoon</metadata>
<defs>
<font id="icomoon" horiz-adv-x="1024">
<font-face units-per-em="1024" ascent="960" descent="-64" />
<missing-glyph horiz-adv-x="1024" />
<glyph unicode="&#x20;" horiz-adv-x="512" d="" />
<glyph unicode="&#xe900;" glyph-name="check-circle" d="M512-64c282.769 0 512 229.231 512 512s-229.231 512-512 512c-282.77 0-512-229.23-512-512s229.23-512 512-512zM322.588 493.257l125.412-125.414 253.41 253.413c24.994 24.994 65.519 24.994 90.513 0 24.99-24.994 24.99-65.516 0-90.511l-298.667-298.667c-24.994-24.99-65.519-24.99-90.511 0l-170.667 170.667c-24.994 24.994-24.994 65.519 0 90.513 24.994 24.99 65.516 24.99 90.51 0z" />
<glyph unicode="&#xe901;" glyph-name="checkmark" horiz-adv-x="1536" d="M195.882 547.885c-37.491 37.488-98.274 37.488-135.764 0-37.49-37.491-37.49-98.278 0-135.77l448-448c37.491-37.485 98.274-37.485 135.767 0l832 832.003c37.485 37.491 37.485 98.274 0 135.764-37.491 37.491-98.278 37.491-135.77 0l-764.115-764.119-380.118 380.122z" />
<glyph unicode="&#xe902;" glyph-name="chevron" horiz-adv-x="597" d="M432.158 448l-402.746 402.745c-24.994 24.994-24.994 65.516 0 90.51s65.516 24.994 90.51 0l448.002-447.998c24.99-24.994 24.99-65.519 0-90.513l-448.002-448c-24.994-24.99-65.516-24.99-90.51 0-24.994 24.994-24.994 65.519 0 90.513l402.746 402.743z" />
<glyph unicode="&#xe903;" glyph-name="download" d="M448 410.509v485.491c0 35.346 28.655 64 64 64s64-28.654 64-64v-485.491l146.743 146.746c24.994 24.994 65.519 24.994 90.513 0 24.99-24.992 24.99-65.517 0-90.511l-256-256c-24.994-24.99-65.519-24.99-90.513 0l-255.998 256c-24.994 24.994-24.994 65.519 0 90.511 24.994 24.994 65.516 24.994 90.51 0l146.745-146.746zM896 64v149.333c0 35.345 28.655 64 64 64s64-28.655 64-64v-213.333c0-35.345-28.655-64-64-64h-896c-35.346 0-64 28.655-64 64v213.333c0 35.345 28.654 64 64 64s64-28.655 64-64v-149.333h768z" />
<glyph unicode="&#xe904;" glyph-name="envelope" horiz-adv-x="1365" d="M212.98 846.222l404.441-283.108c39.174-27.42 91.318-27.42 130.492 0l404.44 283.108h-939.373zM1251.556 776.78l-438.397-306.878c-78.347-54.847-182.636-54.847-260.986 0l-438.394 306.878v-670.114c0-31.42 25.47-56.889 56.889-56.889h1024c31.42 0 56.889 25.469 56.889 56.889v670.114zM170.667 960h1024c94.259 0 170.667-76.41 170.667-170.667v-682.667c0-94.259-76.407-170.667-170.667-170.667h-1024c-94.256 0-170.667 76.407-170.667 170.667v682.667c0 94.256 76.41 170.667 170.667 170.667z" />
<glyph unicode="&#xe905;" glyph-name="exclamation-circle" d="M1024 448c0-282.769-229.231-512-512-512s-512 229.231-512 512c0 282.77 229.23 512 512 512s512-229.23 512-512zM448 640v-192c0-35.345 28.655-64 64-64s64 28.655 64 64v192c0 35.346-28.655 64-64 64s-64-28.654-64-64zM512 192c35.345 0 64 28.655 64 64s-28.655 64-64 64c-35.345 0-64-28.655-64-64s28.655-64 64-64z" />
<glyph unicode="&#xe906;" glyph-name="exclamation-triangle" horiz-adv-x="1069" d="M613.26 897.127l432.119-830.995c22.688-43.631 5.712-97.391-37.919-120.080-12.689-6.598-26.78-10.044-41.080-10.044h-864.236c-49.177 0-89.043 39.865-89.043 89.043 0 14.3 3.445 28.392 10.043 41.080l432.118 830.995c22.688 43.631 76.448 60.609 120.080 37.92 16.237-8.443 29.478-21.684 37.919-37.92zM467.478 537.052v-200.347c0-36.882 29.901-66.783 66.783-66.783s66.783 29.901 66.783 66.783v200.347c0 36.883-29.901 66.783-66.783 66.783s-66.783-29.899-66.783-66.783zM534.261 69.574c36.882 0 66.783 29.901 66.783 66.783s-29.901 66.783-66.783 66.783c-36.882 0-66.783-29.901-66.783-66.783s29.901-66.783 66.783-66.783z" />
<glyph unicode="&#xe907;" glyph-name="external-link-s" d="M805.491 832h-165.491c-35.347 0-64 28.654-64 64s28.653 64 64 64h320c35.347 0 64-28.654 64-64v-320c0-35.347-28.653-64-64-64s-64 28.653-64 64v165.491l-434.746-434.745c-24.992-24.992-65.517-24.992-90.509 0s-24.993 65.517 0 90.509l434.746 434.746zM384 896c35.347 0 64-28.654 64-64s-28.653-64-64-64h-192c-35.346 0-64-28.654-64-64v-576c0-35.347 28.654-64 64-64h573.907c35.078 0 63.616 28.23 64 63.302l2.099 193.395c0.384 35.341 29.344 63.68 64.691 63.296 35.341-0.384 63.68-29.344 63.296-64.691l-2.099-193.389c-1.139-105.216-86.758-189.914-191.987-189.914h-573.907c-106.038 0-192 85.958-192 192v576c0 106.038 85.962 192 192 192h192z" />
<glyph unicode="&#xe908;" glyph-name="long-arrow" horiz-adv-x="1600" d="M1240.237 352h-1112.237c-53.020 0-96 42.982-96 96s42.98 96 96 96h1112.237l-220.122 220.118c-37.485 37.491-37.485 98.274 0 135.764 37.491 37.491 98.278 37.491 135.77 0l384-383.997c37.485-37.491 37.485-98.278 0-135.77l-384-384c-37.491-37.485-98.278-37.485-135.77 0-37.485 37.491-37.485 98.278 0 135.77l220.122 220.115z" />
<glyph unicode="&#xe909;" glyph-name="question-circle" d="M1024 448c0-282.769-229.231-512-512-512s-512 229.231-512 512c0 282.77 229.23 512 512 512s512-229.23 512-512zM512 277.333c-35.345 0-64-28.655-64-64s28.655-64 64-64c35.345 0 64 28.655 64 64s-28.655 64-64 64zM448 554.667c0 49.987 14.012 64 64 64 45.402 0 56.384-8.238 61.171-27.374 2.227-8.907 2.829-17.954 2.829-36.626 0-13.797-3.217-18.747-23.979-35.358 1.041 0.836-21.594-16.892-28.847-22.933-29.786-24.819-51.494-49.911-68.416-83.755-15.808-31.612-2.995-70.059 28.621-85.862 31.612-15.808 70.059-2.995 85.862 28.621 8.030 16.060 18.586 28.254 35.878 42.662 5.474 4.565 26.556 21.073 26.859 21.316 48.128 38.502 72.021 75.26 72.021 135.309 0 28.735-1.122 45.547-6.652 67.671-19.285 77.137-82.206 124.329-185.348 124.329-120.68 0-192-71.32-192-192 0-35.345 28.654-64 64-64s64 28.655 64 64z" />
<glyph unicode="&#xe90a;" glyph-name="search" d="M311.211 350.652c-42.537 62.484-67.401 137.962-67.401 219.253 0 215.444 174.651 390.095 390.095 390.095s390.095-174.651 390.095-390.095c0-215.445-174.651-390.095-390.095-390.095-81.291 0-156.77 24.864-219.253 67.399l-289.789-289.787c-28.564-28.56-74.875-28.56-103.44 0-28.564 28.565-28.564 74.879 0 103.444l289.788 289.787zM633.905 326.095c134.651 0 243.81 109.158 243.81 243.81s-109.158 243.81-243.81 243.81c-134.651 0-243.81-109.157-243.81-243.81s109.158-243.81 243.81-243.81z" />
<glyph unicode="&#xe90b;" glyph-name="star" horiz-adv-x="1069" d="M302.739-33.583c-45.002-19.83-97.559 0.574-117.389 45.577-6.21 14.091-8.659 29.554-7.108 44.873l25.486 251.717-168.573 188.661c-32.766 36.673-29.601 92.961 7.070 125.728 11.484 10.261 25.432 17.368 40.483 20.628l247.271 53.545 127.334 218.622c24.754 42.495 79.267 56.879 121.763 32.128 13.303-7.751 24.376-18.821 32.127-32.128l127.337-218.622 247.269-53.545c48.061-10.408 78.59-57.808 68.181-105.872-3.259-15.053-10.365-29.001-20.627-40.484l-168.573-188.661 25.484-251.717c4.955-48.925-30.693-92.605-79.618-97.56-15.324-1.549-30.787 0.899-44.878 7.11l-231.517 102.022-231.522-102.022z" />
<glyph unicode="&#xe90c;" glyph-name="sync" horiz-adv-x="768" d="M402.219 746.12l54.618-54.617c16.661-16.663 16.661-43.677 0-60.34s-43.678-16.662-60.339 0l-128 128c-16.662 16.663-16.662 43.677 0 60.34l128 128c16.661 16.662 43.678 16.662 60.339 0s16.661-43.677 0-60.34l-55.543-55.546c204.049-9.042 366.707-177.335 366.707-383.618 0-102.319-40.256-198.383-110.707-269.756-16.555-16.768-43.571-16.943-60.339-0.388-16.772 16.55-16.947 43.567-0.393 60.335 54.844 55.561 86.106 130.159 86.106 209.809 0 158.831-123.981 288.704-280.448 298.12zM366.707 64.384c-204.051 9.041-366.707 177.331-366.707 383.616 0 102.525 40.42 198.769 111.126 270.177 16.58 16.745 43.594 16.878 60.339 0.298s16.878-43.595 0.298-60.339c-55.041-55.587-86.429-130.328-86.429-210.136 0-158.831 123.983-288.704 280.448-298.121l-54.618 54.618c-16.663 16.661-16.663 43.678 0 60.339 16.661 16.661 43.678 16.661 60.339 0l128-128c16.661-16.661 16.661-43.678 0-60.339l-128-128c-16.661-16.661-43.678-16.661-60.339 0-16.663 16.661-16.663 43.678 0 60.339l55.543 55.548z" />
<glyph unicode="&#xe90d;" glyph-name="times" d="M512 568.692l341.925 341.926c33.326 33.325 87.353 33.325 120.678 0s33.326-87.355 0-120.68l-341.925-341.927 341.925-341.925c33.326-33.326 33.326-87.353 0-120.678s-87.353-33.326-120.678 0l-341.925 341.925-341.926-341.925c-33.324-33.326-87.355-33.326-120.68 0s-33.324 87.353 0 120.678l341.926 341.925-341.926 341.927c-33.324 33.325-33.324 87.355 0 120.68s87.355 33.325 120.68 0l341.926-341.926z" />
<glyph unicode="&#xe90e;" glyph-name="headset" d="M938.667 576c47.13 0 85.333-38.205 85.333-85.333v-170.667c0-47.13-38.204-85.333-85.333-85.333v-128c0-70.694-57.306-128-128-128h-42.667c0-23.565-19.102-42.667-42.667-42.667h-85.333c-23.565 0-42.667 19.102-42.667 42.667v85.333c0 23.565 19.102 42.667 42.667 42.667h85.333c23.565 0 42.667-19.102 42.667-42.667h42.667c23.565 0 42.667 19.102 42.667 42.667v128c-47.13 0-85.333 38.204-85.333 85.333v170.667c0 47.128 38.204 85.333 85.333 85.333 0 164.949-133.717 298.667-298.667 298.667h-85.333c-164.949 0-298.667-133.718-298.667-298.667 47.128 0 85.333-38.205 85.333-85.333v-170.667c0-47.13-38.205-85.333-85.333-85.333h-85.333c-47.128 0-85.333 38.204-85.333 85.333v170.667c0 47.128 38.205 85.333 85.333 85.333 0 212.077 171.923 384 384 384h85.333c212.079 0 384-171.923 384-384z" />
<glyph unicode="&#xe90f;" glyph-name="shopware" d="M637.082 134.985c69.402-26.859 134.989-52.326 179.456-85.786 1.86-1.391 2.884-3.622 2.884-5.948 0-2.321-1.114-4.459-2.978-5.854-88.657-65.523-193.877-100.19-304.397-100.19-136.85 0-265.42 53.257-362.080 149.82-96.753 96.563-149.967 225.003-149.967 361.626 0 136.525 53.307 264.967 149.967 361.53 96.753 96.656 225.323 149.817 362.080 149.817 126.524 0 248.021-46.47 341.982-130.951 2.419-2.138 3.166-5.576 1.771-8.55-1.306-2.881-4.373-4.647-7.629-4.183-36.471 5.019-75.823 7.528-117.035 7.528-149.129 0-270.259-33.272-350.171-96.099-71.262-56.042-108.94-133.553-108.94-224.262 0-101.022 38.794-180.949 118.429-244.335 70.333-55.855 164.017-92.194 246.628-124.164zM1019.162 500.881c1.489-1.207 2.419-3.068 2.607-5.018 1.489-16.265 2.142-32.158 2.231-47.211 0-64.222-11.814-126.955-35.072-186.436-0.742-2.044-2.419-3.533-4.373-4.275-0.836-0.277-1.673-0.465-2.509-0.465-1.212 0-2.419 0.277-3.537 0.93-60.843 33.737-127.172 58.458-191.275 82.342-124.476 46.374-231.927 86.434-231.927 174.259 0 31.321 13.12 58.088 37.956 77.233 28.655 22.12 71.637 33.365 127.642 33.365 105.033 0 191.458-36.153 298.257-124.725z" />
<glyph unicode="&#xe910;" glyph-name="laptop" horiz-adv-x="1365" d="M170.667 960h1024c31.42 0 56.889-25.47 56.889-56.889v-682.667c0-31.42-25.469-56.889-56.889-56.889h-1024c-31.419 0-56.889 25.469-56.889 56.889v682.667c0 31.419 25.47 56.889 56.889 56.889zM516.855 106.667c11.715-33.143 43.323-56.889 80.478-56.889h170.667c37.154 0 68.762 23.745 80.475 56.889h431.525c47.127 0 85.333-38.207 85.333-85.333s-38.207-85.333-85.333-85.333h-1194.667c-47.128 0-85.333 38.207-85.333 85.333s38.205 85.333 85.333 85.333h431.522z" />
<glyph unicode="&#xe911;" glyph-name="map-marker" horiz-adv-x="768" d="M416.789-25.028c-1.66-1.993-3.494-3.827-5.487-5.487-18.112-15.078-45.013-12.621-60.092 5.487-234.14 281.203-351.211 486.69-351.211 616.469 0 203.55 180.45 368.559 384 368.559s384-165.009 384-368.559c0-129.779-117.069-335.266-351.211-616.469zM384 448c70.694 0 128 57.306 128 128 0 70.692-57.306 128-128 128s-128-57.308-128-128c0-70.694 57.306-128 128-128z" />
<glyph unicode="&#xe912;" glyph-name="graduation-cap" horiz-adv-x="1365" d="M29.7 668.654c1.564 0.852 3.173 1.634 4.822 2.339l601.064 273.211c29.912 13.598 64.25 13.598 94.162 0l602.237-273.744c44.464-20.211 44.464-83.367 0-103.58l-602.237-273.744c-29.912-13.596-64.25-13.596-94.162 0l-521.808 237.187v-167.652c0-31.42-25.47-56.889-56.889-56.889s-56.889 25.469-56.889 56.889v255.998c0 0.885 0.020 1.765 0.060 2.64 0.841 18.763 10.722 37.172 29.64 47.344zM1137.778 364.828v-128.683c0-21.362-6.013-42.297-17.357-60.405-88.303-140.942-236.749-211.291-437.754-211.291s-349.45 70.349-437.75 211.285c-11.341 18.102-17.356 39.031-17.361 60.405v128.688l408.030-185.469c29.912-13.596 64.25-13.596 94.162 0l408.030 185.469z" />
<glyph unicode="&#xe913;" glyph-name="pause" horiz-adv-x="745" d="M93.091 960h139.636c51.414 0 93.091-41.678 93.091-93.091v-837.818c0-51.414-41.677-93.091-93.091-93.091h-139.636c-51.413 0-93.091 41.677-93.091 93.091v837.818c0 51.413 41.678 93.091 93.091 93.091zM512 960h139.636c51.414 0 93.091-41.678 93.091-93.091v-837.818c0-51.414-41.677-93.091-93.091-93.091h-139.636c-51.414 0-93.091 41.677-93.091 93.091v837.818c0 51.413 41.677 93.091 93.091 93.091z" />
<glyph unicode="&#xe914;" glyph-name="play" horiz-adv-x="896" d="M0 874.537v-853.332c0-66.001 71.713-107.017 128.599-73.553l725.332 426.667c56.094 32.994 56.094 114.108 0 147.102l-725.332 426.668c-56.886 33.462-128.599-7.554-128.599-73.552z" />
</font>
</defs>
</svg>
